Skip to main content

Billy Iuso and Restless Natives Live at Baltimore Street Beat Festival on 2007-09-30




Billy Iuso & The Restless Natives
September 30, 2007
Hamburg Street Stage - Baltimore Street Beat Festival
Baltimore MD

*** THIS IS A 24-BIT FILESET NOT INTENDED FOR AUDIO CD ***

SOURCE: studio projects LSD2 (xy) > busman t-mod edirol r4 (24/96)
PROCESSING: soundforge 8.0 (tracking, fades) > flac 1.2.0a

01
02
03
04
05
06
07
08
09
10


Collection BillyIusoandRestlessNatives
Band/Artist Billy Iuso and Restless Natives
Venue Baltimore Street Beat Festival
Location Baltimore MD

Source studio projects LSD2 (xy) > busman t-mod edirol r4 (24/96)
Lineage soundforge 8.0 (tracking, fades) > flac 1.2.0a
Taped by Peter W. King
Transferred by Peter W. King

Notes

length expanded size cdr WAVE problems fmt ratio filename
0:44.576 25675820 B cxx -- ---xx flac 0.5374 billyiuso2007-09-30_lsdII_t01.flac
7:06.528 245680172 B cxx -- ---xx flac 0.5828 billyiuso2007-09-30_lsdII_t02.flac
8:19.285 287588396 B cxx -- ---xx flac 0.5827 billyiuso2007-09-30_lsdII_t03.flac
8:46.784 303427628 B cxx -- ---xx flac 0.5832 billyiuso2007-09-30_lsdII_t04.flac
5:55.307 204656684 B cxx -- ---xx flac 0.5919 billyiuso2007-09-30_lsdII_t05.flac
5:23.520 186347564 B cxx -- ---xx flac 0.5925 billyiuso2007-09-30_lsdII_t06.flac
5:18.571 183496748 B cxx -- ---xx flac 0.5691 billyiuso2007-09-30_lsdII_t07.flac
5:55.200 204595244 B cxx -- ---xx flac 0.5876 billyiuso2007-09-30_lsdII_t08.flac
4:01.323 139001900 B cxx -- ---xx flac 0.5702 billyiuso2007-09-30_lsdII_t09.flac
7:25.696 256720940 B cxx -- ---xx flac 0.5813 billyiuso2007-09-30_lsdII_t10.flac
58:56.789 2037191096 B 0.5823 (10 files)

Reviews

Reviewer: earle - - June 28, 2008
Subject: check it out
funky funk NOLA comes to baltimore
Uploaded by
peterwking
on 6/11/2008
Views
598
Favorites
3
Reviews
1
PEOPLE ALSO FOUND
Billy Iuso and Restless Natives
by Billy Iuso and Restless Natives
221
1
0
Source: studio projects LSD2 (xy) > busman t-mod edirol r4 (24/96)
Billy Iuso and Restless Natives
by Billy Iuso and Restless Natives
207
1
0
Source: mbho 603a/ka100dk (omni, jecklin) > sound devices mp2 > busman t-mod edirol r4 (24/96)
Billy Iuso and Restless Natives
by Billy Iuso and Restless Natives
261
2
0
Source: mbho 603a/ka100dk (omni, jecklin) > sound devices mp2 > busman t-mod edirol r4 (24/96)
Billy Iuso and Restless Natives
by Billy Iuso and Restless Natives
598
3
1
( 1 reviews )
Source: studio projects LSD2 (xy) > busman t-mod edirol r4 (24/96)
Bonerama
by Bonerama
655
1
0
Source: mbho 603a/ka200n (cardioid, ORTF) > sound devices mp2 > t-mod edirol r4
The Brakes
by The Brakes
216
0
0
Source: mbho 603a/ka200n (cardioid, ORTF) > sound devices mp2 > busman t-mod edirol r4 (24/96)
Hot Buttered Rum
by Hot Buttered Rum
925
1
1
( 1 reviews )
Source: mbho 603a/ka200n (card, ORTF) > mp2 > busman t-mod edirol r4 (24/96)
Ryan Montbleau
by Ryan Montbleau
34
0
0
Source: Neumann U89i (subcard, NOS, -80h)> Lunatec V2> Apogee Minime> Tascam HD-P2 (16/44.1)
Source: mbho 603a/ka200n (cardioid, ORTF) > sound devices mp2 > busman t-mod edirol r4 (24/96)
Oteil and the Peacemakers
by Oteil and the Peacemakers
110
1
0
Source: schoeps mk4v (ORTF) > vms02ib > busman t-mod edirol r4 (24/96)